<?xml version="1.0" standalone="no"?>
<!DOCTYPE svg PUBLIC "-//W3C//DTD SVG 1.1//EN" "http://www.w3.org/Graphics/SVG/1.1/DTD/svg11.dtd" >
<svg xmlns="http://www.w3.org/2000/svg">
<metadata>Generated by IcoMoon</metadata>
<defs>
<font id="icomoon" horiz-adv-x="1024">
<font-face units-per-em="1024" ascent="960" descent="-64" />
<missing-glyph horiz-adv-x="1024" />
<glyph unicode="&#x20;" horiz-adv-x="512" d="" />
<glyph unicode="&#xe900;" glyph-name="aim" d="M952.826 519.17h-44.57c-8.482 205.564-174.144 371.228-379.708 379.71v44.568c0 9.142-7.408 16.552-16.552 16.552s-16.552-7.41-16.552-16.552v-44.568c-205.562-8.482-371.226-174.146-379.71-379.71h-44.566c-9.144 0-16.552-7.41-16.552-16.552s7.408-16.552 16.552-16.552h44.57c8.484-205.564 174.146-371.226 379.71-379.71v-153.804c0-9.142 7.408-16.552 16.552-16.552s16.552 7.412 16.552 16.552v153.804c205.562 8.484 371.226 174.146 379.71 379.71h44.57c9.144 0 16.552 7.412 16.552 16.552 0 9.142-7.416 16.552-16.558 16.552zM495.444 139.482c-187.306 8.438-338.144 159.276-346.582 346.584h144.946c8.078-107.484 94.15-193.558 201.636-201.636v-144.948zM495.446 317.69c-89.212 7.92-160.456 79.166-168.376 168.376h95.33c6.822-37 36.046-66.226 73.048-73.048v-95.328zM495.446 447.008c-18.708 5.58-33.48 20.35-39.058 39.058h39.058v-39.058zM456.384 519.17c5.58 18.708 20.352 33.48 39.058 39.058v-39.058h-39.058zM422.398 519.17h-95.332c7.92 89.212 79.168 160.456 168.376 168.376v-95.33h0.002c-36.998-6.816-66.224-36.044-73.046-73.046zM495.446 720.806c-107.488-8.078-193.558-94.15-201.636-201.636h-144.948c8.438 187.31 159.276 338.148 346.584 346.584v-144.948zM528.55 687.55c89.212-7.92 160.456-79.168 168.376-168.376l-95.33-0.002c-6.822 37-36.046 66.226-73.048 73.048v95.33zM528.55 558.23c18.708-5.58 33.48-20.352 39.058-39.058h-39.058v39.058zM528.55 486.066h39.058c-5.58-18.708-20.35-33.48-39.058-39.058v39.058zM601.598 486.066h95.332c-7.92-89.212-79.168-160.456-168.376-168.376v95.33h-0.002c36.998 6.818 66.224 36.044 73.046 73.046zM528.55 139.482v144.948c107.488 8.078 193.558 94.15 201.636 201.636h144.946c-8.438-187.308-159.274-338.146-346.582-346.584zM730.186 519.17c-8.078 107.486-94.15 193.558-201.636 201.636v144.948c187.308-8.438 338.144-159.276 346.582-346.584h-144.946z" />
<glyph unicode="&#xe901;" glyph-name="aim-1" d="M841.717 452.021h-38.869c-8.042 152.796-130.010 276.105-282.806 282.806v46.911c0 8.042-5.361 13.403-13.403 13.403s-13.403-5.361-13.403-13.403v-46.911c-152.796-6.702-276.105-130.010-282.806-282.806h-38.869c-8.042 0-13.403-5.361-13.403-13.403s5.361-13.403 13.403-13.403h38.869c6.702-152.796 130.010-274.764 282.806-282.806v-46.911c0-6.702 5.361-13.403 13.403-13.403s13.403 5.361 13.403 13.403v46.911c152.796 6.702 276.105 130.010 282.806 282.806h38.869c8.042 0 13.403 5.361 13.403 13.403s-5.361 13.403-13.403 13.403zM493.236 706.681v-138.052c-61.654-6.702-111.246-56.293-117.948-117.948h-136.712c6.702 139.393 116.607 249.298 254.66 256zM493.236 403.77v-68.356c-46.911 6.702-84.44 42.89-91.141 91.141h69.696v-1.34c4.021-9.382 12.063-17.424 21.445-21.445zM494.576 169.215c-139.393 8.042-249.298 117.948-256 256h138.052c6.702-61.654 56.293-111.246 117.948-117.948v-138.052zM494.576 473.466h-1.34c-9.382-4.021-17.424-12.063-21.445-21.445h-68.356c6.702 46.911 42.89 84.44 91.141 91.141v-69.696zM520.042 706.681c138.052-6.702 247.958-116.607 254.66-254.66h-136.712c-6.702 61.654-56.293 111.246-117.948 117.948v136.712zM520.042 541.822c46.911-6.702 84.44-42.89 91.141-91.141h-69.696v1.34c-4.021 9.382-12.063 17.424-21.445 21.445v68.356zM518.702 334.073v69.696h1.34c9.382 4.021 17.424 12.063 21.445 21.445h68.356c-6.702-46.911-42.89-84.44-91.141-91.141zM520.042 170.555v136.712c61.654 6.702 111.246 56.293 117.948 117.948h138.052c-8.042-138.052-117.948-247.958-256-254.66zM223.832 8.377h-197.026v197.026c0 8.042-5.361 13.403-13.403 13.403s-13.403-5.361-13.403-13.403v-210.429c0-8.042 5.361-13.403 13.403-13.403h210.429c8.042 0 13.403 5.361 13.403 13.403s-5.361 13.403-13.403 13.403zM1010.597 218.806c-8.042 0-13.403-5.361-13.403-13.403v-197.026h-197.026c-8.042 0-13.403-5.361-13.403-13.403s5.361-13.403 13.403-13.403h210.429c8.042 0 13.403 5.361 13.403 13.403v210.429c0 8.042-5.361 13.403-13.403 13.403zM1010.597 914.429h-210.429c-8.042 0-13.403-6.702-13.403-13.403 0-8.042 5.361-13.403 13.403-13.403h197.026v-197.026c0-8.042 5.361-13.403 13.403-13.403s13.403 5.361 13.403 13.403v210.429c0 8.042-5.361 13.403-13.403 13.403zM223.832 914.429h-210.429c-8.042 0-13.403-5.361-13.403-13.403v-210.429c0-8.042 5.361-13.403 13.403-13.403s13.403 5.361 13.403 13.403v197.026h197.026c8.042 0 13.403 5.361 13.403 13.403s-5.361 13.403-13.403 13.403z" />
<glyph unicode="&#xe902;" glyph-name="aircraft" d="M1000.378 258.962l-75.907 77.8v75.718c0 10.454-8.476 18.929-18.929 18.929s-18.929-8.476-18.929-18.929v-37.102l-54.138 55.274v78.936c0 10.454-8.476 18.929-18.929 18.929s-18.929-8.476-18.929-18.929v-40.13l-56.788 58.303v75.718c0 10.454-8.476 18.929-18.929 18.929s-18.929-8.476-18.929-18.929v-37.859l-106.383 108.844c-12.683 214.471-64.549 276.37-66.821 279.020-6.855 7.894-18.811 8.734-26.705 1.879-0.67-0.582-1.297-1.209-1.879-1.879-2.272-2.65-54.138-64.549-66.821-279.020l-105.816-108.087v37.859c0 10.454-8.476 18.929-18.929 18.929s-18.929-8.476-18.929-18.929v-75.718l-54.138-55.274v36.345c0 10.454-8.476 18.929-18.929 18.929s-18.929-8.476-18.929-18.929v-75.718l-58.492-59.817v37.859c0 10.454-8.476 18.929-18.929 18.929s-18.929-8.476-18.929-18.929v-75.718l-75.718-75.718c-3.497-3.526-5.468-8.284-5.49-13.251v-140.078c0.028-10.454 8.525-18.906 18.979-18.88 3.085 0.007 6.124 0.771 8.847 2.222l366.663 196.866c-4.103-53.353-0.147-107.022 11.736-159.197l-86.886-73.825c-4.576-3.89-7.035-9.72-6.625-15.711l5.868-84.804c0.764-10.425 9.836-18.26 20.262-17.496 1.476 0.109 2.934 0.388 4.347 0.838l151.057 46.377 150.3-47.324c1.881-0.286 3.798-0.286 5.679 0 9.959-0.024 18.231 7.671 18.929 17.604l5.868 84.804c0.409 5.991-2.049 11.821-6.625 15.711l-86.886 73.825c11.883 52.174 15.839 105.844 11.736 159.197l366.663-198.381c9.228-4.915 20.692-1.417 25.604 7.811 1.45 2.723 2.212 5.762 2.222 8.847v140.078c-0.019 4.964-1.992 9.725-5.49 13.251zM968.009 137.246l-369.503 198.381c-9.186 4.99-20.678 1.59-25.671-7.595-1.881-3.462-2.634-7.423-2.156-11.334 0-1.136 13.818-116.416-10.79-190.43-2.463-7.335-0.215-15.43 5.679-20.444l89.158-75.718-3.597-51.109-120.013 37.859v47.513c0 10.454-8.476 18.929-18.929 18.929s-18.929-8.476-18.929-18.929v-47.134l-120.013-37.859-3.218 51.488 89.158 75.718c5.894 5.014 8.142 13.109 5.679 20.444-24.608 73.825-10.979 189.294-10.79 190.43 1.268 10.378-6.117 19.817-16.492 21.085-3.909 0.478-7.872-0.277-11.334-2.156l-369.503-199.138v100.705l170.365 173.204c1.055 0.902 2.007 1.919 2.839 3.029l234.157 239.079c3.209 3.317 5.092 7.695 5.3 12.304 6.247 131.181 28.205 202.356 42.97 236.050 14.765-34.262 36.723-105.437 43.727-236.618 0.208-4.609 2.092-8.987 5.3-12.304l328.804-335.998c1.245-1.763 2.78-3.298 4.543-4.543l73.257-75.718v-99.19zM512.377 658.563c-42.781 0-75.718-54.327-75.718-123.609s33.505-123.609 75.718-123.609c42.213 0 75.718 54.327 75.718 123.609s-32.937 123.609-75.718 123.609zM512.377 449.203c-17.794 0-37.859 37.859-37.859 85.75s20.822 85.75 37.859 85.75 37.859-37.859 37.859-85.75c0-47.891-20.065-85.75-37.859-85.75z" />
<glyph unicode="&#xe903;" glyph-name="backpack" d="M831.458 430.046v148.585c0 28.479-21.050 58.196-29.717 70.578 3.715 17.335 4.953 35.908 4.953 54.481v38.385c0 16.097-6.191 32.193-16.097 43.337h11.144c45.814 0 82.96 37.146 82.96 82.96v8.667c0 45.814-37.146 82.96-82.96 82.96h-580.721c-45.814 0-82.96-37.146-82.96-82.96v-8.667c0-45.814 37.146-82.96 82.96-82.96h18.573c-14.859-14.859-23.526-34.67-23.526-56.958v-24.764c0-19.811 2.476-38.385 6.191-58.196-14.859-18.573-23.526-42.099-23.526-66.863v-148.585h-1.238c-49.528-6.191-87.913-48.29-87.913-99.057v-258.786c0-22.288 17.335-39.623 39.623-39.623h48.29c1.238-53.243 45.814-96.58 99.057-96.58h437.088c54.481 0 97.819 43.337 99.057 96.58h39.623c23.526 0 42.099 18.573 42.099 42.099v261.262c0 48.29-35.908 87.913-82.96 94.104zM198.733 57.345h-48.29c-8.667 0-14.859 7.429-14.859 14.859v258.786c0 37.146 27.241 68.102 63.149 74.293v-347.937zM716.305 935.236h89.151c30.955 0 58.196-26.002 58.196-58.196v-8.667c0-32.193-26.002-58.196-58.196-58.196h-89.151v125.059zM715.067 785.412h26.002c24.764 0 43.337-19.811 43.337-44.576v-38.385c0-69.34-26.002-132.489-69.34-180.779v263.739zM702.684 165.069c9.906 0 17.335-7.429 17.335-17.335s-7.429-17.335-17.335-17.335c-9.906 0-17.335 7.429-17.335 17.335 0 8.667 8.667 17.335 17.335 17.335zM373.32 280.222l141.156 38.385 141.156-38.385-141.156-38.385-141.156 38.385zM467.424 229.456l-130.012-35.908v71.816l130.012-35.908zM337.412 296.319v69.34l128.774-34.67-128.774-34.67zM561.528 330.989l128.774 34.67v-69.34l-128.774 34.67zM690.302 264.126v-71.816l-130.012 35.908 130.012 35.908zM337.412 810.177v125.059h352.89v-126.297h-352.89v1.238zM337.412 785.412h352.89v-287.265c-48.29-42.099-110.201-66.863-178.302-66.863-66.863 0-127.536 23.526-174.588 63.149v290.979zM336.174 463.478c49.528-35.908 108.963-56.958 174.588-56.958 66.863 0 128.774 22.288 178.302 59.434v-74.293h1.238l-177.064-47.052-177.064 47.052v71.816zM342.365 147.734c0-9.906-7.429-17.335-17.335-17.335s-17.335 7.429-17.335 17.335c0 8.667 8.667 17.335 17.335 17.335 9.906 0 17.335-7.429 17.335-17.335zM221.021 808.938c-32.193 1.238-58.196 27.241-58.196 59.434v8.667c0 32.193 26.002 58.196 58.196 58.196h92.866v-126.297h-92.866zM239.594 727.216c0 32.193 26.002 56.958 56.958 56.958h16.097v-266.215c-44.576 48.29-73.054 113.915-73.054 184.493v24.764zM222.259 418.902v160.967c0 11.144 2.476 22.288 7.429 33.432 16.097-50.767 45.814-95.342 82.96-130.012v-295.932c-17.335-4.953-29.717-21.050-29.717-40.861 0-23.526 18.573-42.099 42.099-42.099s42.099 18.573 42.099 42.099c0 9.906-3.715 18.573-9.906 26.002l156.015 43.337 156.015-43.337c-6.191-7.429-9.906-16.097-9.906-26.002 0-23.526 18.573-42.099 42.099-42.099s42.099 18.573 42.099 42.099c0 18.573-12.382 34.67-29.717 40.861v299.647c37.146 34.67 65.625 79.245 81.722 130.012 7.429-12.382 12.382-26.002 12.382-37.146v-501.475h-585.674v340.508zM810.409 44.963v-9.906h-1.238c0-40.861-33.432-74.293-74.293-74.293h-437.088c-40.861 0-74.293 33.432-74.293 74.293v17.335h586.912v-7.429zM892.131 75.918c0-9.906-7.429-17.335-17.335-17.335h-39.623v346.699c32.193-6.191 56.958-34.67 56.958-69.34v-260.024z" />
<glyph unicode="&#xe904;" glyph-name="cctv" d="M1013.242 488.236l-578.557 330.897c-44.626 25.564-105.707 11.782-135.125-30.318l-112.081-160.227c-11-15.744-16.812-34.198-16.812-53.402 0-33.176 17.834-64.077 46.52-80.633l122.019-70.465-22.042-29.414c-11.938-15.91-18.5-35.636-18.5-55.53 0-20.458 7.492-39.702 19.56-55.61l-32.476-48.866h-157.749v64.209c0 11.802-9.542 21.122-21.334 21.122h-85.331c-11.792 0-21.334-9.32-21.334-21.122v-213.524c0-11.802 9.542-21.352 21.334-21.352h85.333c11.792 0 21.334 9.55 21.334 21.352v21.314h157.749c42.896 0 82.707 21.308 106.499 57.026l34.968 52.5c6.734-1.462 13.526-2.788 20.468-2.788 33.958 0 65.915 18.1 83.375 47.25l23.44 39.102 181.559-104.849c3.27-1.898 6.958-2.856 10.666-2.856 2.062 0 4.126 0.292 6.146 0.896 5.626 1.71 10.312 5.652 12.938 10.906l15.794 31.658c2.592-0.196 5.086-0.756 7.726-0.756 82.333 0 149.333 67.059 149.333 149.467 0 9.050-1.336 18.376-3.322 27.91l76.863 38.462c7.042 3.524 11.562 10.634 11.792 18.516 0.206 7.866-3.918 15.226-10.752 19.126zM85.333 106.669h-42.668v170.665h42.666v-170.665zM356.747 187.272c-15.854-23.792-42.396-38-70.999-38h-157.749v42.666h157.749c14.334 0 27.604 7.104 35.5 19l29.542 44.328 36.636-21.976-30.678-46.018zM494.476 282.439c-14.916-24.812-50.020-33.646-74.853-18.708l-54.104 32.458c-14.916 8.938-24.188 25.312-24.188 42.708 0 10.708 3.542 21.312 9.958 29.896l25.128 33.502 141.119-81.421-23.060-38.434zM737.764 243.064l-499.266 288.062c-15.52 8.958-25.166 25.666-25.166 43.604 0 10.396 3.146 20.376 9.104 28.896l53.562 76.499 527.93-304.566-66.163-132.495zM803.234 278.679l44.656 89.427 47.39 23.692c0.238-2.618 0.714-5.328 0.714-7.86 0-54.050-40.566-98.359-92.759-105.259zM832.717 408.216l-532.152 306.998 33.954 48.492c11.23 16.042 29.604 25.626 49.188 25.626 10.438 0 20.75-2.73 29.812-7.916l543.954-310.832-124.755-62.368zM725.332 341.335c0-11.782-9.551-21.334-21.334-21.334s-21.334 9.551-21.334 21.334c0 11.782 9.551 21.334 21.334 21.334s21.334-9.551 21.334-21.334z" />
<glyph unicode="&#xe905;" glyph-name="condecoration" d="M791.049 278.972l62.694 141.369c2.459 4.917 1.229 9.834-1.229 13.522s-7.376 4.917-11.064 4.917l-200.375-29.503 29.503 200.375c1.229 4.917-1.229 8.605-4.917 11.064s-8.605 3.688-12.293 1.229l-102.031-45.484c4.917 7.376 7.376 15.981 7.376 24.586 0 14.752-7.376 27.044-17.21 35.649l190.54 104.49c3.688 2.459 6.146 6.146 6.146 11.064v195.457c0 7.376-4.917 12.293-12.293 12.293h-427.794c-7.376 0-12.293-4.917-12.293-12.293v-195.457c0-4.917 2.459-8.605 6.146-11.064l190.54-103.261c-11.064-8.605-17.21-20.898-17.21-35.649 0-9.834 2.459-17.21 7.376-24.586l-102.031 45.484c-3.688 1.229-8.605 1.229-12.293-1.229s-4.917-7.376-4.917-11.064l29.503-200.375-200.375 29.503c-4.917 1.229-8.605-1.229-11.064-4.917s-3.688-8.605-1.229-12.293l62.694-137.681-62.694-145.056c-1.229-3.688-1.229-8.605 1.229-12.293s7.376-4.917 11.064-4.917l200.375 29.503-29.503-201.604c-1.229-4.917 1.229-8.605 4.917-11.064s8.605-3.688 12.293-1.229l137.681 61.465 145.056-62.694c1.229-1.229 3.688-1.229 4.917-1.229 2.459 0 4.917 1.229 7.376 2.459 3.688 2.459 4.917 7.376 4.917 11.064l-29.503 200.375 200.375-29.503c4.917-1.229 8.605 1.229 11.064 4.917s3.688 8.605 1.229 12.293l-62.694 141.369zM632.471 935.414h79.904v-175.789l-79.904-43.025v218.814zM392.759 715.371l-82.363 44.255v175.789h82.363v-220.043zM417.345 701.849c0 1.229 0 1.229 0 2.459v231.107h191.77v-232.336l-97.114-52.86-94.655 51.63zM534.127 602.276c-1.229-12.293-11.064-22.127-22.127-22.127-12.293 0-22.127 9.834-22.127 22.127s9.834 22.127 22.127 22.127 22.127-9.834 22.127-22.127zM626.324 179.4c-3.688 0-7.376-1.229-11.064-3.688-2.459-2.459-3.688-6.146-3.688-11.064l30.732-195.457-130.305 55.318c-1.229 1.229-3.688 1.229-4.917 1.229s-3.688 0-4.917-1.229l-121.7-55.318 29.503 194.228c0 3.688-1.229 7.376-3.688 11.064-2.459 2.459-6.146 3.688-11.064 3.688l-195.457-29.503 56.547 130.305c1.229 3.688 1.229 7.376 0 9.834l-55.318 121.7 195.457-29.503c3.688 0 7.376 1.229 11.064 3.688 2.459 2.459 3.688 6.146 3.688 11.064l-30.732 194.228 126.617-55.318c3.688-1.229 7.376-1.229 9.834 0l125.388 55.318-29.503-195.457c0-3.688 1.229-7.376 3.688-11.064 2.459-2.459 6.146-3.688 11.064-3.688l195.457 29.503-56.547-124.158c-1.229-3.688-1.229-7.376 0-9.834l55.318-125.388-195.457 29.503z" />
<glyph unicode="&#xe906;" glyph-name="email" d="M1023.796 568.53c-0.106 1.176-0.34 2.338-0.7 3.464-0.234 1.006-0.56 1.988-0.972 2.936-0.478 0.926-1.050 1.802-1.706 2.612-0.658 0.962-1.42 1.848-2.27 2.646-0.274 0.238-0.392 0.564-0.682 0.802l-164.138 127.476v132.119c0 28.277-22.925 51.203-51.203 51.203h-184.961l-74.058 57.501c-18.295 14.269-43.95 14.269-62.245 0l-74.074-57.501h-184.961c-28.277 0-51.203-22.923-51.203-51.203v-132.121l-164.086-127.476c-0.29-0.24-0.41-0.564-0.682-0.802-0.85-0.796-1.612-1.684-2.27-2.646-0.656-0.81-1.228-1.684-1.706-2.612-0.414-0.946-0.738-1.93-0.972-2.936-0.356-1.11-0.59-2.254-0.7-3.414 0-0.358-0.204-0.666-0.204-1.024v-580.343c0.024-10.857 3.536-21.417 10.019-30.124 0.102-0.154 0.12-0.342 0.238-0.478 0.12-0.136 0.376-0.29 0.546-0.478 9.588-12.617 24.501-20.055 40.348-20.123h921.647c15.909 0.048 30.884 7.522 40.484 20.207 0.136 0.17 0.342 0.222 0.46 0.392 0.12 0.17 0.136 0.324 0.24 0.478 6.482 8.708 9.995 19.269 10.019 30.124v580.297c-0.002 0.358-0.188 0.666-0.206 1.024zM501.733 922.358c5.96 4.736 14.401 4.736 20.361 0l39.374-30.568h-98.991l39.256 30.568zM55.453-29.858l446.283 346.66c5.964 4.728 14.399 4.728 20.361 0l446.401-346.66h-913.044zM989.866-3.249l-446.761 346.984c-18.299 14.257-43.946 14.257-62.245 0l-446.777-346.984v544.762l279.686-217.185c7.452-5.778 18.177-4.422 23.955 3.030s4.422 18.177-3.030 23.955l-284.14 220.631 120.070 93.309v-131.881c0-9.426 7.642-17.067 17.067-17.067s17.067 7.642 17.067 17.067v307.216c0 9.426 7.64 17.067 17.067 17.067h580.295c9.426 0 17.067-7.64 17.067-17.067v-307.216c0-9.426 7.64-17.067 17.067-17.067s17.067 7.642 17.067 17.067v131.881l120.070-93.309-284.634-221.025c-4.896-3.71-7.422-9.766-6.61-15.857s4.834-11.275 10.533-13.573c5.698-2.298 12.193-1.358 17.003 2.464l280.18 217.559v-544.762zM716.784 550.439v68.269c0 113.114-91.697 204.81-204.81 204.81s-204.81-91.697-204.81-204.81 91.697-204.81 204.81-204.81c9.426 0 17.067 7.64 17.067 17.067s-7.64 17.067-17.067 17.067c-94.261 0-170.675 76.414-170.675 170.675s76.414 170.675 170.675 170.675 170.675-76.414 170.675-170.675v-68.269c0-18.853-15.283-34.136-34.136-34.136s-34.136 15.283-34.136 34.136v68.269c0 9.426-7.64 17.067-17.067 17.067s-17.067-7.64-17.067-17.067c0-37.704-30.566-68.269-68.269-68.269s-68.269 30.566-68.269 68.269 30.566 68.269 68.269 68.269c9.426 0 17.067 7.64 17.067 17.067s-7.64 17.067-17.067 17.067c-45.832 0.102-86.152-30.262-98.713-74.34s5.694-91.135 44.696-115.208c39.002-24.073 89.249-19.301 123.020 11.687 3.716-36.094 35.088-62.931 71.322-61.013 36.236 1.92 64.599 31.918 64.485 68.203z" />
<glyph unicode="&#xe907;" glyph-name="id" d="M238.148 447.578c11.503 14.756 17.781 32.913 17.852 51.622 0 47.127-38.206 85.333-85.333 85.333s-85.333-38.206-85.333-85.333c0.070-18.709 6.349-36.866 17.852-51.622-58.135-4.39-103.091-52.794-103.185-111.093v-144.484c-0.002-9.423 7.635-17.065 17.058-17.067 0.002 0 0.006 0 0.009 0h51.2v-221.867c-0.002-9.423 7.635-17.065 17.058-17.067 0.002 0 0.006 0 0.009 0h170.667c9.423-0.002 17.065 7.635 17.067 17.058 0 0.002 0 0.006 0 0.009v221.867h51.2c9.423-0.002 17.065 7.635 17.067 17.058 0 0.002 0 0.006 0 0.009v144.484c-0.094 58.3-45.050 106.703-103.185 111.093zM170.667 550.4c28.277 0 51.2-22.923 51.2-51.2s-22.923-51.2-51.2-51.2-51.2 22.923-51.2 51.2c0.030 28.265 22.935 51.17 51.2 51.2zM307.2 209.067h-34.133v153.6h-34.133v-392.533h-51.2v221.867h-34.133v-221.867h-51.2v392.533h-34.133v-153.6h-34.133v127.418c0.049 42.718 34.667 77.333 77.382 77.382h118.3c42.718-0.049 77.333-34.667 77.382-77.382v-127.418zM938.675 755.2c-0.002 0-0.006 0-0.009 0h-375.467c-9.423 0.002-17.065-7.635-17.067-17.058 0-0.002 0-0.006 0-0.009v-273.067c-0.002-9.423 7.635-17.065 17.058-17.067 0.002 0 0.006 0 0.009 0h375.467c9.423-0.002 17.065 7.635 17.067 17.058 0 0.002 0 0.006 0 0.009v273.067c0.002 9.423-7.635 17.065-17.058 17.067zM802.133 482.133h-102.4v30.099c0.028 27.347 22.185 49.515 49.534 49.551h3.334c27.347-0.036 49.506-22.202 49.534-49.551v-30.099zM722.492 624.35c-0.004 15.708 12.725 28.446 28.433 28.45s28.446-12.725 28.45-28.433-12.725-28.446-28.433-28.45c-0.002 0-0.006 0-0.009 0-15.695 0.021-28.416 12.738-28.442 28.433zM921.6 482.133h-85.333v30.099c-0.051 28.621-14.758 55.221-38.97 70.487 23.211 25.606 21.267 65.18-4.339 88.39s-65.18 21.267-88.39-4.339c-21.615-23.849-21.615-60.203 0-84.049-24.211-15.266-38.916-41.867-38.97-70.487v-30.101h-85.333v238.933h341.333v-238.933zM614.4 413.867h169.694v-34.133h-169.694v34.133zM819.2 413.867h68.267v-34.133h-68.267v34.133zM614.4 345.6h271.531v-34.133h-271.531v34.133zM614.4 277.333h84.855v-34.133h-84.855v34.133zM733.867 277.333h153.6v-34.133h-153.6v34.133zM1006.942 857.6c-0.002 0-0.006 0-0.009 0h-170.065l32.265 78.867c3.567 8.727-0.614 18.697-9.344 22.263-2.048 0.838-4.241 1.269-6.455 1.269h-204.8c-9.429-0.002-17.071-7.648-17.069-17.077 0-2.214 0.431-4.407 1.269-6.455l32.265-78.867h-170.065c-9.423 0.002-17.065-7.635-17.067-17.058 0-0.002 0-0.006 0-0.009v-648.533c-0.002-9.423 7.635-17.065 17.058-17.067 0.002 0 0.006 0 0.009 0h512c9.423-0.002 17.065 7.635 17.067 17.058 0 0.002 0 0.006 0 0.009v648.533c0.002 9.423-7.635 17.065-17.058 17.067zM827.908 925.867l-41.892-102.4h-70.167l-41.892 102.4h153.952zM989.867 209.067h-477.867v614.4h166.963l9.628-23.533c2.626-6.415 8.87-10.605 15.802-10.601h93.084c6.931-0.004 13.175 4.186 15.799 10.601l9.628 23.533h166.963v-614.4zM750.933 900.267c-14.138 0-25.6-11.462-25.6-25.6 0.015-14.131 11.469-25.585 25.6-25.6 14.138 0 25.6 11.462 25.6 25.6s-11.462 25.6-25.6 25.6zM187.733 379.733h34.133v-34.133h-34.133v34.133zM426.675 635.733c-0.002 0-0.006 0-0.009 0h-68.267v-34.133h30.263l-111.29-125.201 25.517-22.667 106.709 120.047v-23.379h34.133v68.267c0.002 9.423-7.635 17.065-17.058 17.067z" />
<glyph unicode="&#xe908;" glyph-name="jet" d="M511.985 651.52c-28.274 0-51.197-22.921-51.197-51.197v-137.291c0.022-18.841 15.289-34.11 34.132-34.132h34.132c18.841 0.022 34.11 15.291 34.132 34.132v137.291c-0.002 28.276-22.925 51.197-51.199 51.197zM494.918 600.323c0.010 9.421 7.644 17.057 17.065 17.065 9.421-0.010 17.057-7.644 17.065-17.065l0.008-68.754h-34.14v68.754zM494.918 463.032v34.406h34.144l0.004-34.406h-34.148zM529.050 394.486h-34.132c-9.425 0-17.065-7.64-17.065-17.065s7.64-17.065 17.065-17.065h34.132c9.425 0 17.065 7.64 17.065 17.065s-7.64 17.065-17.065 17.065zM529.050 325.949h-34.132c-9.425 0-17.065-7.642-17.065-17.065 0-9.425 7.64-17.065 17.065-17.065h34.132c9.425 0 17.065 7.642 17.065 17.065 0 9.425-7.64 17.065-17.065 17.065zM1005.203 322.649l-15.383 12.575v95.702c0 28.276-22.921 51.197-51.197 51.197s-51.197-22.921-51.197-51.197v-11.991l-255.984 209.273v13.005c0.006 10.123-2.98 20.025-8.583 28.456l-22.665 34.14c-1.884 2.834-2.886 6.164-2.884 9.565v87.294c0 53.047-35.914 113.343-57.312 144.549-6.326 9.249-16.807 14.781-28.012 14.783s-21.689-5.526-28.018-14.773c-21.399-31.214-57.312-91.51-57.312-144.559v-87.294c0.002-3.404-1-6.732-2.884-9.565l-22.681-34.156c-5.594-8.429-8.573-18.323-8.567-28.44v-13.005l-239.099-195.479c-0.94 27.898-24.082 49.883-51.991 49.393-27.908-0.492-50.263-23.28-50.219-51.193v-81.763l-32.35-26.448c-16.451-13.541-22.865-35.814-16.133-56.028l15.815-46.997c4.394-13.169 13.921-24.004 26.42-30.046s26.91-6.776 39.957-2.036l151.556 54.538c1.94 0.7 3.988 1.058 6.050 1.058h149.99v-2.868c0.002-2.164 0.414-4.308 1.216-6.316l29.976-75.251-138.201-138.777c-9.183-9.139-12.381-22.701-8.249-34.982l8.499-25.574c4.552-13.971 17.571-23.428 32.264-23.44 3.37 0.002 6.724 0.5 9.949 1.474l152.384 45.905h63.242l152.384-45.905c3.226-0.974 6.58-1.472 9.949-1.474 14.691 0.010 27.708 9.465 32.264 23.43l8.499 25.574c4.134 12.275 0.942 25.83-8.233 34.972l-138.219 138.795 29.976 75.251c0.802 2.010 1.216 4.152 1.218 6.316v2.868h149.99c2.062 0 4.11-0.358 6.050-1.058l151.29-54.446c13.121-4.724 27.592-3.964 40.145 2.108 12.555 6.070 22.137 16.941 26.584 30.158l15.765 46.839c6.722 20.145 0.334 42.349-16.063 55.844zM85.344 430.926c0 9.425 7.64 17.065 17.065 17.065s17.065-7.64 17.065-17.065v-25.954l-34.132-27.904v53.859zM392.525 277.336h-149.99c-6.006 0.002-11.965-1.038-17.615-3.076l-151.556-54.538c-4.416-1.6-9.291-1.35-13.521 0.694s-7.454 5.71-8.943 10.163l-15.815 46.997c-2.254 6.752-0.114 14.193 5.384 18.717l352.061 287.823v-306.78zM318.163-29.802l-8.465 25.698 124.104 124.62 23.964-108.297-139.603-42.021zM564.434 161.073l-0.036-0.088c-0.346-0.85-0.62-1.728-0.816-2.626l-31.164-140.849h-40.863l-31.164 140.849c-0.198 0.896-0.47 1.774-0.816 2.626l-0.036 0.088-0.034 0.088-32.846 82.453v397.598c-0.002 3.406 1 6.736 2.884 9.573l22.665 34.14c5.606 8.427 8.593 18.327 8.583 28.448v87.294c0 45.479 35.898 102.743 51.047 125.258 15.449-22.515 51.347-79.779 51.347-125.258v-87.294c-0.010-10.121 2.976-20.021 8.583-28.448l22.649-34.122c1.894-2.84 2.902-6.178 2.9-9.591v-397.598l-32.882-82.541zM714.304-4.22l-8.483-25.622-139.619 42.059 23.962 108.289 124.14-124.726zM921.559 430.926c0 9.425 7.64 17.065 17.065 17.065s17.065-7.64 17.065-17.065v-67.798l-34.132 27.902v39.895zM988.936 277.686l-15.765-46.831c-1.528-4.518-4.808-8.231-9.099-10.309s-9.241-2.34-13.731-0.732l-151.29 54.446c-5.65 2.036-11.609 3.076-17.615 3.076h-149.99v306.782l352.161-287.899c5.432-4.484 7.55-11.847 5.33-18.533z" />
<glyph unicode="&#xe909;" glyph-name="map-pin-silhouette" d="M512 960c-198.454 0-359.346-160.892-359.346-359.344 0-15.192 1.219-29.999 3.076-44.677 30.705-280.696 332.936-604.209 332.936-604.209 5.385-6.026 10.577-9.744 15.576-12.434l0.257-0.129 10.064-3.205 10.064 3.205 0.257 0.129c4.999 2.693 10.193 6.602 15.576 12.434 0 0 297.872 324.091 327.871 604.848 1.794 14.486 3.013 29.166 3.013 44.101-0.065 198.389-160.892 359.281-359.346 359.281zM512 369.51c-127.431 0-231.144 103.713-231.144 231.144s103.713 231.144 231.144 231.144 231.081-103.713 231.081-231.144-103.65-231.144-231.081-231.144z" />
<glyph unicode="&#xe90a;" glyph-name="medal" d="M671.984 638.342c-2.354 7.24-8.616 12.514-16.148 13.608l-87.007 12.62-38.93 78.828c-3.372 6.824-10.322 11.144-17.932 11.144h-0.004c-7.614-0.002-14.564-4.326-17.932-11.154l-38.886-78.848-87.001-12.666c-7.534-1.096-13.79-6.376-16.14-13.616s-0.386-15.188 5.066-20.5l62.972-61.35-14.838-86.655c-1.286-7.504 1.802-15.086 7.962-19.56 3.484-2.53 7.608-3.816 11.752-3.816 3.184 0 6.382 0.76 9.31 2.3l77.806 40.932 77.828-40.89c6.738-3.542 14.904-2.95 21.062 1.528 6.158 4.476 9.24 12.060 7.952 19.562l-14.884 86.647 62.94 61.382c5.446 5.316 7.404 13.264 5.050 20.504zM568.535 577.75c-4.712-4.596-6.862-11.216-5.748-17.704l9.804-57.070-51.262 26.932c-5.826 3.062-12.788 3.060-18.614-0.004l-51.248-26.96 9.774 57.076c1.112 6.488-1.042 13.108-5.756 17.702l-41.476 40.408 57.302 8.342c6.514 0.948 12.144 5.042 15.056 10.944l25.612 51.932 25.642-51.92c2.916-5.902 8.548-9.992 15.062-10.936l57.306-8.312-41.454-40.43zM961.482 81.261l-165.313 287.542c49.922 62.316 79.832 141.323 79.832 227.195 0 200.711-163.291 364.002-364.002 364.002s-364.002-163.291-364.002-364.002c0-85.873 29.908-164.879 79.832-227.195l-165.313-287.542c-3.796-6.604-3.512-14.792 0.734-21.118 4.246-6.324 11.724-9.688 19.266-8.674l129.027 17.326 49.508-120.403c2.9-7.050 9.556-11.84 17.164-12.348 0.448-0.030 0.894-0.044 1.338-0.044 7.11 0 13.728 3.786 17.316 10l166.887 289.056c0.026 0.044 0.044 0.090 0.070 0.136 15.768-2.094 31.844-3.194 48.176-3.194s32.408 1.1 48.176 3.194c0.026-0.044 0.044-0.090 0.070-0.136l166.887-289.056c3.588-6.214 10.208-10 17.316-10 0.444 0 0.89 0.014 1.338 0.044 7.608 0.508 14.264 5.298 17.164 12.348l49.51 120.403 129.027-17.326c7.558-1.014 15.020 2.35 19.266 8.674 4.234 6.326 4.52 14.514 0.724 21.118zM282.57 1.236l-36.040 87.645 32.342 52.778c5.772 9.418 2.816 21.732-6.602 27.502s-21.732 2.816-27.502-6.602l-32.682-53.332-94.661-12.71 138.553 240.993c45.384-44.954 102.497-78.080 166.289-94.313l-139.697-241.961zM511.997 271.996c-178.655 0-324.002 145.347-324.002 324.002s145.347 324.002 324.002 324.002 324.002-145.347 324.002-324.002-145.347-324.002-324.002-324.002zM811.911 109.227l-32.682 53.332c-5.77 9.418-18.084 12.376-27.502 6.602-9.418-5.772-12.374-18.084-6.602-27.502l32.342-52.778-36.040-87.645-139.697 241.961c63.792 16.232 120.907 49.358 166.289 94.313l138.553-240.993-94.661 12.71zM511.997 855.999c-44.632 0-88.667-11.504-127.345-33.272-9.626-5.416-13.038-17.612-7.622-27.238s17.612-13.042 27.238-7.622c32.702 18.404 69.954 28.132 107.729 28.132 121.309 0 220.001-98.693 220.001-220.001 0-33.148-7.182-64.998-21.346-94.665-4.758-9.968-0.536-21.906 9.432-26.666 2.782-1.328 5.714-1.956 8.604-1.956 7.464 0 14.63 4.202 18.062 11.388 16.752 35.090 25.248 72.738 25.248 111.899 0 143.365-116.635 260.002-260.002 260.002zM698.104 443.153c-7.926 7.692-20.588 7.502-28.28-0.424l-0.444-0.456c-7.716-7.902-7.566-20.566 0.336-28.282 3.89-3.798 8.932-5.69 13.97-5.69 5.198 0 10.394 2.014 14.312 6.028l0.528 0.542c7.694 7.926 7.504 20.588-0.422 28.282zM645.176 395.307c-5.33 9.674-17.494 13.196-27.168 7.864-32.262-17.778-68.92-27.174-106.011-27.174-121.309 0-220.001 98.693-220.001 220.001 0 31.778 6.622 62.426 19.68 91.093 4.58 10.052 0.142 21.912-9.91 26.492-10.052 4.578-21.912 0.142-26.492-9.91-15.448-33.908-23.28-70.134-23.28-107.675 0-143.365 116.637-260.002 260.002-260.002 43.822 0 87.157 11.114 125.317 32.142 9.674 5.332 13.196 17.494 7.864 27.168zM350 774.201c-8.082 7.53-20.738 7.078-28.266-1.002l-0.444-0.478c-7.5-8.108-7.010-20.762 1.098-28.262 3.846-3.56 8.716-5.32 13.576-5.32 5.38 0 10.744 2.158 14.686 6.418l0.352 0.378c7.528 8.082 7.080 20.738-1.002 28.266z" />
<glyph unicode="&#xe90b;" glyph-name="medal-1" d="M284.098 434.411c4.941 7.411 7.411 16.058 7.411 24.704 0 14.823-7.411 27.175-17.293 35.821l190.222 103.758c3.706 2.47 6.176 6.176 6.176 11.117v324.86c0 7.411-4.941 12.352-12.352 12.352h-426.147c-7.411 0-12.352-4.941-12.352-12.352v-324.86c0-4.941 2.47-8.646 6.176-11.117l190.222-103.758c-9.882-8.646-17.293-20.999-17.293-35.821 0-8.646 2.47-17.293 7.411-24.704-116.11-18.528-206.28-119.815-206.28-240.866 0-134.638 109.934-244.571 244.571-244.571s244.571 109.934 244.571 244.571c1.235 121.050-88.935 222.338-205.045 240.866zM368.092 922.319h79.053v-305.097l-79.053-43.232v348.329zM127.226 571.52l-82.759 44.468v306.332h82.759v-350.799zM150.695 559.168v363.151h191.457v-361.916c0 0 0 0 0-1.235l-96.346-51.879-95.111 51.879zM268.040 459.116c0-12.352-9.882-22.234-22.234-22.234-12.352 1.235-22.234 11.117-22.234 22.234 0 12.352 9.882 22.234 22.234 22.234s22.234-9.882 22.234-22.234zM245.807-26.321c-121.050 0-219.867 98.817-219.867 219.867s98.817 219.867 219.867 219.867c121.050 0 219.867-98.817 219.867-219.867 0-122.286-98.817-219.867-219.867-219.867zM933.818 235.543c-2.47 6.176-6.176 9.882-11.117 9.882l-91.405 13.587-40.762 82.759c-2.47 3.706-6.176 7.411-11.117 7.411s-8.646-2.47-11.117-7.411l-40.762-82.759-91.405-13.587c-4.941-1.235-8.646-3.706-9.882-8.646s0-9.882 3.706-12.352l65.466-64.231-16.058-90.17c-1.235-4.941 1.235-9.882 4.941-12.352s8.646-3.706 13.587-1.235l81.524 41.997 81.524-43.232c1.235-1.235 3.706-1.235 6.176-1.235s4.941 1.235 7.411 2.47c3.706 2.47 6.176 7.411 4.941 12.352l-14.823 90.17 65.466 64.231c3.706 3.706 4.941 8.646 3.706 12.352zM842.412 173.782c-2.47-2.47-3.706-7.411-3.706-11.117l12.352-72.877-64.231 34.586c-1.235 1.235-3.706 1.235-6.176 1.235s-3.706 0-6.176-1.235l-65.466-33.351 12.352 71.642c1.235 3.706-1.235 8.646-3.706 11.117l-51.879 51.879 72.877 9.882c3.706 0 7.411 3.706 9.882 6.176l32.115 65.466 32.115-65.466c1.235-3.706 4.941-6.176 9.882-6.176l71.642-9.882-51.879-51.879zM818.943 434.411c4.941 7.411 7.411 16.058 7.411 24.704 0 14.823-7.411 27.175-17.293 35.821l190.222 103.758c3.706 2.47 6.176 6.176 6.176 11.117v324.86c0 7.411-4.941 12.352-12.352 12.352h-426.147c-7.411 0-12.352-4.941-12.352-12.352v-324.86c0-4.941 2.47-8.646 6.176-11.117l190.222-103.758c-9.882-8.646-17.293-20.999-17.293-35.821 0-8.646 2.47-17.293 7.411-24.704-116.11-18.528-206.28-119.815-206.28-240.866 0-134.638 109.934-244.571 244.571-244.571s244.571 109.934 244.571 244.571c1.235 121.050-88.935 222.338-205.045 240.866zM901.702 922.319h79.053v-305.097l-79.053-43.232v348.329zM662.072 571.52l-82.759 44.468v306.332h82.759v-350.799zM685.541 559.168v363.151h191.457v-361.916c0 0 0 0 0-1.235l-96.346-51.879-95.111 51.879zM802.886 459.116c0-12.352-9.882-22.234-22.234-22.234-12.352 1.235-22.234 11.117-22.234 22.234 0 12.352 9.882 22.234 22.234 22.234s22.234-9.882 22.234-22.234zM780.652-26.321c-121.050 0-219.867 98.817-219.867 219.867s98.817 219.867 219.867 219.867c121.050 0 219.867-98.817 219.867-219.867 0-122.286-98.817-219.867-219.867-219.867zM347.094 281.246h-202.574c-7.411 0-12.352-4.941-12.352-12.352s4.941-12.352 12.352-12.352h202.574c7.411 0 12.352 4.941 12.352 12.352s-6.176 12.352-12.352 12.352zM347.094 205.898h-202.574c-7.411 0-12.352-4.941-12.352-12.352s4.941-12.352 12.352-12.352h202.574c7.411 0 12.352 4.941 12.352 12.352 0 6.176-6.176 12.352-12.352 12.352zM347.094 129.315h-202.574c-7.411 0-12.352-4.941-12.352-12.352s4.941-12.352 12.352-12.352h202.574c7.411 0 12.352 4.941 12.352 12.352 0 6.176-6.176 12.352-12.352 12.352z" />
<glyph unicode="&#xe90c;" glyph-name="placeholder" d="M517.926 514.963c64.603 0 117.185 52.583 117.185 117.185s-52.583 117.185-117.185 117.185-117.185-52.583-117.185-117.185 52.566-117.185 117.185-117.185zM517.926 715.852c46.154 0 83.704-37.55 83.704-83.704s-37.55-83.704-83.704-83.704-83.704 37.55-83.704 83.704 37.55 83.704 83.704 83.704zM840.655 330.815h-119.881l51.009 73.659c96.343 128.419 82.398 339.503-29.815 451.7-60.618 60.635-141.242 94.033-227.005 94.033-85.746 0-166.37-33.398-227.005-94.033-112.213-112.197-126.159-323.298-30.2-451.197l51.361-74.178h-125.773l-183.345-385.021h1024l-183.345 385.038zM284.928 424.563c-87.035 116.064-74.563 306.691 26.718 407.956 54.307 54.307 126.527 84.223 203.334 84.223s149.010-29.916 203.334-84.223c101.282-101.265 113.754-291.909 26.333-408.458l-229.683-331.685-230.035 332.187zM204.505 297.333h127.799l182.659-263.784 182.642 263.784h121.89l151.471-318.075h-917.93l151.471 318.075z" />
<glyph unicode="&#xe90d;" glyph-name="play-button" d="M879.393 468.078l-707.064 487.631c-7.485 5.145-17.189 5.681-25.186 1.512-8.022-4.218-13.044-12.508-13.044-21.578v-975.261c0-9.070 5.023-17.384 13.044-21.602 3.56-1.853 7.461-2.779 11.337-2.779 4.852 0 9.679 1.463 13.849 4.316l707.064 487.631c6.607 4.559 10.533 12.044 10.533 20.066s-3.95 15.507-10.533 20.066zM182.861 6.804v882.392l639.747-441.208-639.747-441.184z" />
<glyph unicode="&#xe90e;" glyph-name="radar" d="M609.81 433.44h-542.195c-8.594 0-15.549 6.962-15.549 15.556s6.955 15.542 15.549 15.542h542.195c8.594 0 15.549-6.948 15.549-15.542s-6.955-15.556-15.549-15.556zM532.074-31.012c-8.594 0-15.556 6.955-15.556 15.549v928.902c0 8.594 6.962 15.549 15.556 15.549s15.549-6.955 15.549-15.549v-928.902c0-8.594-6.955-15.549-15.549-15.549zM532.074 307.668c-77.929 0-141.328 63.399-141.328 141.328 0 77.914 63.399 141.313 141.328 141.313 54.185 0 104.273-31.603 127.603-80.53 3.713-7.753 0.413-17.031-7.325-20.729-7.739-3.677-17.059-0.406-20.729 7.34-18.207 38.166-57.285 62.829-99.549 62.829-60.784 0-110.23-49.454-110.23-110.223 0-60.784 49.447-110.237 110.23-110.237 50.116 0 93.976 33.812 106.646 82.226 2.181 8.316 10.682 13.233 18.976 11.124 8.309-2.188 13.29-10.675 11.109-18.983-16.254-62.095-72.477-105.456-136.732-105.456zM532.074 174.706c-55.154 0-108.349 16.311-153.819 47.159-7.112 4.817-8.964 14.487-4.133 21.591s14.494 8.964 21.591 4.133c40.311-27.335 87.456-41.786 136.361-41.786 128.872 0 234.655 100.76 242.701 227.636h-78.085c-8.594 0-15.549 6.962-15.549 15.556s6.955 15.542 15.549 15.542h94.126c8.594 0 15.542-6.948 15.542-15.542 0-151.247-123.050-274.29-274.283-274.29zM317.535 288.777c-5.002 0-9.905 2.394-12.912 6.841-30.634 45.392-46.838 98.423-46.838 153.378 0 151.233 123.050 274.275 274.29 274.275 70.112 0 136.931-26.658 188.145-75.064 6.235-5.893 6.534-15.727 0.627-21.969l-152.701-161.701h42.606c8.594 0 15.549-6.948 15.549-15.542s-6.955-15.556-15.549-15.556h-78.677c-6.214 0-11.829 3.691-14.273 9.399-2.458 5.694-1.29 12.314 2.979 16.824l166.468 176.28c-43.675 36.356-98.223 56.23-155.173 56.23-134.095 0-243.185-109.083-243.185-243.178 0-48.727 14.359-95.743 41.53-135.969 4.796-7.112 2.922-16.774-4.19-21.591-2.679-1.796-5.708-2.658-8.694-2.658zM532.074 13.219c-240.292 0-435.777 195.484-435.777 435.777 0 98.544 33.827 195.128 95.266 271.952 5.387 6.67 15.15 7.789 21.855 2.437 6.698-5.38 7.796-15.164 2.43-21.869-57.876-72.356-88.454-159.663-88.454-252.52 0-223.154 181.525-404.679 404.679-404.679 217.931 0 396.185 173.159 404.38 389.123h-239.772c-8.594 0-15.542 6.962-15.542 15.556s6.948 15.542 15.542 15.542h255.613c8.594 0 15.549-6.948 15.549-15.542 0-240.292-195.484-435.777-435.769-435.777zM610.751 433.44h-78.677c-6.214 0-11.829 3.691-14.273 9.399-2.458 5.694-1.29 12.314 2.979 16.824l277.361 293.701c-73.931 64.803-167.836 100.297-266.066 100.297-92.131 0-182.273-31.774-253.838-89.487-6.72-5.416-16.482-4.34-21.855 2.337-5.394 6.684-4.34 16.482 2.337 21.869 77.074 62.159 174.15 96.385 273.356 96.385 111.378 0 217.546-42.363 298.924-119.266 6.235-5.9 6.527-15.727 0.62-21.976l-263.473-278.986h42.606c8.594 0 15.549-6.948 15.549-15.542s-6.955-15.556-15.549-15.556zM344.071 202.475c-32.266 0-58.518 26.252-58.518 58.518 0 32.28 26.252 58.532 58.518 58.532 32.287 0 58.532-26.252 58.532-58.532 0-32.266-26.245-58.518-58.532-58.518zM344.071 288.421c-15.121 0-27.42-12.314-27.42-27.435s12.299-27.42 27.42-27.42c15.121 0 27.435 12.299 27.435 27.42s-12.314 27.435-27.435 27.435zM653.72 401.523c-32.287 0-58.539 26.252-58.539 58.518 0 32.287 26.252 58.532 58.539 58.532 32.266 0 58.511-26.245 58.511-58.532 0-32.266-26.245-58.518-58.511-58.518zM653.72 487.475c-15.121 0-27.435-12.306-27.435-27.435 0-15.121 12.314-27.428 27.435-27.428s27.42 12.306 27.42 27.428c0 15.128-12.299 27.435-27.42 27.435zM233.499 689.038c-32.287 0-58.539 26.252-58.539 58.525 0 32.287 26.252 58.539 58.539 58.539 32.273 0 58.532-26.252 58.532-58.539 0-32.273-26.259-58.525-58.532-58.525zM233.499 774.998c-15.121 0-27.449-12.306-27.449-27.435 0-15.121 12.328-27.435 27.449-27.435s27.435 12.314 27.435 27.435c0 15.128-12.314 27.435-27.435 27.435z" />
<glyph unicode="&#xe90f;" glyph-name="radar-1" d="M512 960c-281.666 0-512-229.018-512-512s230.334-512 512-512 512 229.018 512 512c0 281.666-229.018 512-512 512zM525.162 799.424c188.216-7.897 338.262-161.892 338.262-351.424 0-193.481-157.943-351.424-351.424-351.424-189.532 0-343.527 150.046-351.424 336.946h130.303v1.316c6.581-115.825 102.663-207.959 221.121-207.959 122.406 0 221.121 100.031 221.121 221.121 0 118.458-92.134 214.54-207.959 221.121v130.303zM222.437 645.429c27.64 40.802 64.494 76.339 107.928 101.347 7.897-7.897 19.743-13.162 31.589-13.162 25.008 0 44.751 19.743 44.751 44.751 0 1.316 0 1.316 0 2.632 28.956 9.213 60.545 14.478 92.134 15.794v-130.303c-52.648-2.632-100.031-23.692-135.568-57.913-5.265 1.316-9.213 2.632-14.478 2.632-25.008 0-44.751-19.743-44.751-44.751 0-10.53 3.949-19.743 9.213-26.324-11.846-25.008-18.427-52.648-21.059-81.604h-130.303c1.316 38.17 9.213 75.023 21.059 109.244 2.632 1.316 5.265 0 7.897 0 25.008 0 44.751 19.743 44.751 44.751 0 13.162-5.265 23.692-13.162 32.905zM383.013 594.098c31.589 27.64 71.075 44.751 114.509 47.383v-143.465c-17.111-5.265-31.589-19.743-34.221-38.17h-146.098c1.316 23.692 7.897 46.067 15.794 65.81 5.265-1.316 9.213-2.632 14.478-2.632 25.008 0 44.751 19.743 44.751 44.751 0 10.53-3.949 19.743-9.213 26.324zM512 404.566c26.324 0 48.699 22.375 48.699 48.699 0 22.375-14.478 40.802-35.537 46.067v142.149c101.347-6.581 181.635-90.817 181.635-194.797 0-107.928-88.185-194.797-194.797-194.797-102.663 0-188.216 80.288-194.797 182.951h150.046c6.581-18.427 25.008-30.272 44.751-30.272zM498.838 932.36v-106.612c-35.537-1.316-69.758-7.897-101.347-17.111-7.897 10.53-21.059 18.427-35.537 18.427-25.008 0-44.751-19.743-44.751-44.751 0-2.632 0-6.581 1.316-9.213-47.383-28.956-88.185-67.126-118.458-113.193-2.632 0-5.265 1.316-7.897 1.316-25.008 0-44.751-19.743-44.751-44.751 0-13.162 5.265-23.692 13.162-31.589-14.478-38.17-22.375-78.972-23.692-121.090h-109.244c6.581 254.026 214.54 461.985 471.198 468.566zM512-37.676c-263.239 0-477.779 210.591-484.36 472.514h107.928c7.897-201.378 173.738-363.27 377.748-363.27 207.959 0 377.748 169.789 377.748 377.748 0 204.010-161.892 369.851-364.586 377.748v106.612c260.607-7.897 471.198-223.753 471.198-485.676 0-267.188-217.172-485.676-485.676-485.676z" />
<glyph unicode="&#xe910;" glyph-name="secure-shield" d="M932.788 783.178c-140.89 38.604-282.607 98.714-409.833 173.83-6.758 3.99-15.144 3.99-21.9 0-130.896-77.274-264.955-134.132-409.845-173.83-9.36-2.562-15.848-11.070-15.848-20.776v-220.092c0-226.646 104.558-376.669 192.274-462.611 94.432-92.53 204.432-143.7 244.37-143.7 39.934 0 149.934 51.17 244.366 143.7 87.714 85.94 192.266 235.964 192.266 462.611v220.094c0 9.704-6.488 18.212-15.848 20.774zM905.556 542.313c0-211.686-97.522-351.675-179.338-431.839-92.862-90.99-192.148-131.39-214.214-131.39s-121.358 40.4-214.222 131.39c-81.814 80.166-179.34 220.154-179.34 431.839v203.74c138.556 39.34 267.591 94.242 393.565 167.448 122.828-71.264 258.301-128.896 393.547-167.44v-203.748zM321.075 748.462c-4.36 11.070-16.866 16.508-27.938 12.146-38.48-15.162-77.976-29.118-117.39-41.482-8.982-2.82-15.094-11.14-15.094-20.552v-83.182c0-11.896 9.646-21.54 21.54-21.54s21.54 9.644 21.54 21.54v67.44c35.358 11.44 70.678 24.094 105.196 37.696 11.070 4.358 16.508 16.864 12.146 27.934zM361.993 744.376c2.89 0 5.824 0.582 8.638 1.81l0.396 0.172c10.898 4.776 15.806 17.462 11.030 28.356-4.78 10.898-17.538 15.828-28.424 11.056l-0.348-0.15c-10.904-4.762-15.828-17.438-11.066-28.338 3.534-8.092 11.464-12.906 19.774-12.906zM768.642 265.435c-9.954 6.506-23.302 3.708-29.816-6.25-17.75-27.168-38.574-53.184-61.902-77.318-19.184-19.844-39.972-38.34-61.786-54.97-9.458-7.212-11.278-20.728-4.068-30.19 4.242-5.558 10.656-8.482 17.144-8.482 4.556 0 9.146 1.438 13.046 4.414 23.53 17.942 45.95 37.888 66.634 59.284 25.222 26.088 47.762 54.248 66.998 83.698 6.51 9.96 3.708 23.308-6.25 29.814zM565.115 93.116l-1.236-0.728c-10.294-5.962-13.812-19.138-7.852-29.432 3.994-6.9 11.224-10.752 18.662-10.752 3.66 0 7.376 0.934 10.77 2.904l1.426 0.838c10.266 6.012 13.714 19.206 7.702 29.472-6.016 10.262-19.212 13.704-29.472 7.698zM365.177 491.963c-13.226 13.228-30.816 20.508-49.524 20.508s-36.3-7.282-49.532-20.508c-27.306-27.312-27.306-71.752 0-99.062l127.192-127.188c13.228-13.224 30.818-20.506 49.528-20.506s36.3 7.282 49.53 20.51l265.521 265.523c27.304 27.318 27.304 71.752-0.004 99.054-13.228 13.228-30.818 20.508-49.53 20.508-18.71 0-36.3-7.282-49.53-20.508l-215.99-215.99-77.662 77.658zM689.293 599.831c5.090 5.090 11.864 7.892 19.068 7.892 7.208 0 13.976-2.802 19.070-7.892 10.51-10.51 10.51-27.618-0.004-38.132l-265.517-265.519c-5.090-5.090-11.864-7.892-19.068-7.892s-13.978 2.802-19.070 7.892l-127.188 127.184c-10.514 10.514-10.514 27.622-0.004 38.132 5.092 5.090 11.866 7.896 19.072 7.896s13.976-2.802 19.066-7.892l92.89-92.892c4.042-4.038 9.518-6.308 15.232-6.308s11.19 2.268 15.228 6.308l231.226 231.224z" />
<glyph unicode="&#xe911;" glyph-name="smartphone" d="M726.955 960h-429.909c-41.438 0-75.179-33.741-75.179-75.179v-873.626c0-41.455 33.741-75.196 75.179-75.196h429.892c41.455 0 75.196 33.741 75.196 75.179v873.643c0 41.438-33.741 75.179-75.179 75.179zM256 823.467h512v-648.533h-512v648.533zM297.045 925.867h429.892c22.647 0 41.062-18.415 41.062-41.045v-27.221h-512v27.221c0 22.63 18.415 41.045 41.045 41.045zM726.955-29.867h-429.909c-22.63 0-41.045 18.415-41.045 41.045v129.621h512v-129.621c0-22.63-18.415-41.045-41.045-41.045zM512 123.733c-37.649 0-68.267-30.618-68.267-68.267s30.618-68.267 68.267-68.267 68.267 30.618 68.267 68.267-30.618 68.267-68.267 68.267zM512 21.333c-18.825 0-34.133 15.309-34.133 34.133s15.309 34.133 34.133 34.133 34.133-15.309 34.133-34.133-15.309-34.133-34.133-34.133zM443.733 874.667h68.267c9.438 0 17.067 7.629 17.067 17.067s-7.629 17.067-17.067 17.067h-68.267c-9.438 0-17.067-7.629-17.067-17.067s7.629-17.067 17.067-17.067zM563.2 874.667h17.067c9.438 0 17.067 7.629 17.067 17.067s-7.629 17.067-17.067 17.067h-17.067c-9.438 0-17.067-7.629-17.067-17.067s7.629-17.067 17.067-17.067zM966.178 882.022c-6.673 6.673-17.459 6.673-24.132 0s-6.673-17.459 0-24.132c63.761-63.761 63.761-167.509 0-231.287-6.673-6.673-6.673-17.459 0-24.132 3.328-3.328 7.697-5.001 12.066-5.001s8.738 1.673 12.066 5.001c77.073 77.056 77.073 202.479 0 279.552zM894.31 843.179c-6.673 6.673-17.459 6.673-24.132 0s-6.673-17.459 0-24.132c21.111-21.111 32.734-49.237 32.734-79.172s-11.622-58.044-32.734-79.155c-6.673-6.673-6.673-17.459 0-24.132 3.328-3.328 7.697-5.001 12.066-5.001s8.738 1.673 12.066 5.001c27.563 27.546 42.735 64.239 42.735 103.287s-15.155 75.759-42.735 103.305zM81.954 857.89c6.673 6.673 6.673 17.459 0 24.132s-17.459 6.673-24.132 0c-77.073-77.073-77.073-202.479 0-279.552 3.328-3.328 7.697-5.001 12.066-5.001s8.738 1.673 12.066 5.001c6.673 6.673 6.673 17.459 0 24.132-63.778 63.761-63.778 167.509 0 231.287zM153.822 847.889c-6.673 6.673-17.459 6.673-24.132 0-27.563-27.546-42.735-64.239-42.735-103.287s15.172-75.742 42.735-103.305c3.328-3.328 7.697-5.001 12.066-5.001s8.738 1.673 12.066 5.001c6.673 6.673 6.673 17.459 0 24.132-21.111 21.111-32.734 49.237-32.734 79.172s11.605 58.044 32.734 79.155c6.656 6.656 6.656 17.459 0 24.132z" />
<glyph unicode="&#xe912;" glyph-name="supplies" d="M682.667-46.933v307.2c0 9.425-7.642 17.067-17.067 17.067h-73.592l340.733 294.283c1.533 1.867 2.958 3.817 4.283 5.833 0.358 0.95 0.625 1.933 0.808 2.933 0.308 1.183 0.833 3.925 0.833 4.15 0 207.033-191.4 375.467-426.667 375.467s-426.667-168.433-426.667-375.467c0.442-2.392 1.008-4.75 1.708-7.083 0.458-0.825 0.992-1.617 1.583-2.358 0.717-1.058 2.525-3.408 2.7-3.408l340.667-294.35h-73.592c-9.425 0-17.067-7.642-17.067-17.067v-307.2c0-9.425 7.642-17.067 17.067-17.067h307.2c9.425 0 17.067 7.642 17.067 17.067zM529.067 576.85c0.658 1.15 1.192 2.367 1.567 3.642 7.8 32.017 43.025 55.242 83.767 55.242 36.275 2.242 69.833-19.233 82.992-53.108l-168.325-263.875zM494.933 318.75l-168.325 263.875c13.158 33.875 46.717 55.35 82.992 53.108 40.742 0 75.967-23.225 83.767-55.242 0.375-1.275 0.908-2.492 1.567-3.642zM733.15 575.217v0.1c0.058 0.142 0.108 0.283 0.15 0.425 0.925 1.458 1.617 3.050 2.050 4.717 7.883 32.050 43.108 55.275 83.85 55.275 33.942 1.7 65.683-16.842 80.875-47.242l-352.85-304.742zM614.4 669.867c-31.25 0.258-61.542-10.75-85.333-31.008v268.475c81.325-67.842 138.692-160.008 163.65-262.933-22.7 16.675-50.158 25.6-78.317 25.467zM494.933 639.025c-0.358 0.325-0.767 0.6-1.125 0.908-0.925 0.767-1.892 1.483-2.833 2.233-2.458 1.967-5 3.858-7.667 5.633-1.175 0.8-2.383 1.583-3.617 2.358-2.767 1.7-5.65 3.408-8.533 4.858-1.042 0.533-2.033 1.108-3.092 1.708-4.017 1.917-8.125 3.625-12.317 5.117-0.908 0.325-1.825 0.567-2.733 0.875-3.408 1.142-6.908 2.183-10.475 3.075-1.467 0.358-2.942 0.658-4.425 0.983-3.258 0.683-6.533 1.25-9.883 1.708-1.433 0.192-2.833 0.408-4.283 0.567-4.767 0.525-9.558 0.792-14.35 0.817-28.167 0.125-55.625-8.8-78.333-25.467 24.975 102.917 82.35 195.092 163.667 262.933zM288.567 580.492c0.433-1.658 1.117-3.242 2.025-4.7 0-0.133 0-0.3 0.175-0.442v-0.1l186.008-291.5-352.85 304.742c15.192 30.4 46.933 48.942 80.875 47.242 40.742 0 75.967-23.225 83.767-55.242zM819.2 669.867c-4.858-0.017-9.708-0.3-14.542-0.833-1.517-0.158-3-0.433-4.525-0.633-3.258-0.458-6.483-0.992-9.658-1.708-1.708-0.358-3.408-0.767-4.983-1.175-3-0.767-5.967-1.633-8.892-2.617-1.533-0.508-3.067-0.983-4.592-1.55-3.275-1.208-6.45-2.575-9.575-4.042-0.983-0.467-2.025-0.858-3-1.333-4.008-1.992-7.9-4.2-11.675-6.608-0.883-0.575-1.708-1.225-2.558-1.808-2.8-1.892-5.533-3.875-8.125-5.992-1.175-0.933-2.283-1.942-3.417-2.933-1.125-0.992-2.542-2.083-3.717-3.208-22.275 111.417-80.725 212.358-166.267 287.15 3.417-0.392 6.95-0.75 10.4-1.233 4.775-0.667 9.533-1.325 14.267-2.15 6.35-1.092 12.608-2.383 18.858-3.75 4.5-0.992 9.042-1.917 13.5-3.025 6.4-1.617 12.675-3.408 18.942-5.358 4.1-1.225 8.258-2.358 12.292-3.7 6.825-2.292 13.517-4.867 20.183-7.475 3.267-1.267 6.608-2.392 9.817-3.742 9.725-4.083 19.242-8.483 28.55-13.208 1.183-0.617 2.275-1.317 3.417-1.925 8.075-4.233 15.992-8.658 23.667-13.367 3.125-1.908 6.083-4.025 9.133-6.008 5.567-3.617 11.108-7.25 16.433-11.108 3.417-2.425 6.525-5.017 9.783-7.542 4.758-3.708 9.508-7.408 14.058-11.317 3.283-2.783 6.4-5.7 9.542-8.533 4.25-3.892 8.45-7.817 12.475-11.95 3.075-3.083 6.025-6.242 8.958-9.433 3.825-4.133 7.542-8.333 11.15-12.617 2.783-3.308 5.475-6.675 8.125-10.067 3.408-4.408 6.708-8.908 9.9-13.45 2.45-3.5 4.875-7 7.183-10.567 3.050-4.725 5.9-9.558 8.7-14.417 2.067-3.583 4.167-7.133 6.075-10.792 2.717-5.117 5.125-10.442 7.567-15.733 1.617-3.533 3.408-7.017 4.825-10.617 2.442-5.933 4.542-11.942 6.625-18.108 1.042-3.083 2.267-6.108 3.225-9.233 2.85-9.283 5.308-18.767 7.233-28.275-22.925 17.058-50.783 26.175-79.358 25.992zM132.642 672.15c0.892 2.908 2.033 5.725 3.008 8.533 0.217 0.65 0.475 1.3 0.717 1.967 1.942 5.633 3.85 11.267 6.125 16.775 1.325 3.225 2.9 6.367 4.333 9.542 0.492 1.092 1.042 2.183 1.55 3.275 2.117 4.542 4.167 9.1 6.508 13.533 1.7 3.175 3.492 6.25 5.267 9.375 0.825 1.433 1.708 2.833 2.508 4.25 2.308 3.883 4.542 7.792 7 11.6 1.933 2.992 3.975 5.892 6.008 8.825 1.192 1.708 2.442 3.417 3.667 5.117 2.442 3.417 4.85 6.833 7.408 10.058 2.133 2.742 4.333 5.425 6.558 8.1 1.617 1.967 3.308 3.892 4.983 5.825 2.542 2.95 5.117 5.883 7.725 8.75 2.275 2.458 4.583 4.883 6.917 7.275 2.1 2.167 4.3 4.267 6.467 6.383 2.642 2.575 5.308 5.117 8.058 7.658 2.3 2.117 4.608 4.233 6.958 6.283 2.65 2.325 5.392 4.542 8.108 6.825 2.717 2.292 5.65 4.608 8.533 6.825 2.217 1.708 4.383 3.417 6.642 5.125 3.242 2.392 6.567 4.692 9.9 7 3.325 2.3 6.4 4.4 9.675 6.533 1.792 1.158 3.533 2.392 5.358 3.533 3.858 2.425 7.833 4.708 11.792 7.017 4.883 2.833 9.767 5.683 14.8 8.325 4.467 2.358 9.058 4.542 13.65 6.825 5.117 2.475 10.242 4.95 15.617 7.242 4.708 2.025 9.542 3.892 14.367 5.75 5.4 2.1 10.808 4.158 16.333 6.042 4.883 1.708 9.85 3.175 14.817 4.658l0.342 0.1c5.583 1.708 11.175 3.308 16.858 4.783 5.125 1.292 10.242 2.458 15.483 3.6h0.117c5.825 1.258 11.675 2.475 17.6 3.5 5.325 0.933 10.7 1.7 16.092 2.475 3.258 0.442 6.55 0.783 9.833 1.158-85.542-74.775-143.992-175.708-166.283-287.117-1.175 1.125-2.475 2.133-3.7 3.208-1.233 1.075-2.242 2-3.417 2.958-2.592 2.1-5.325 4.075-8.125 5.967-0.867 0.583-1.708 1.233-2.558 1.808-3.775 2.408-7.667 4.617-11.675 6.608-0.975 0.475-2.017 0.875-3 1.333-3.125 1.467-6.3 2.833-9.575 4.042-1.525 0.567-3.058 1.042-4.592 1.558-2.917 0.967-5.875 1.842-8.892 2.608-1.708 0.408-3.317 0.817-4.983 1.175-3.175 0.683-6.4 1.217-9.658 1.708-1.525 0.208-3.008 0.475-4.525 0.633-4.833 0.517-9.683 0.783-14.542 0.783-28.583 0.192-56.458-8.933-79.392-25.992 1.925 9.575 4.383 18.992 7.233 28.275zM648.533-29.867h-273.067v273.067h273.067zM426.667 209.067c-9.425 0-17.067-7.642-17.067-17.067v-170.667c0-9.425 7.642-17.067 17.067-17.067h170.667c9.425 0 17.067 7.642 17.067 17.067v170.667c0 9.425-7.642 17.067-17.067 17.067zM487.867 106.667l-44.133-44.133v88.267zM467.867 174.933h88.267l-44.133-44.133zM512 82.533l44.133-44.133h-88.267zM536.133 106.667l44.133 44.133v-88.267zM220.158 713.442c21.833 39.975 54.692 72.833 94.667 94.667 8.442 4.208 11.867 14.467 7.65 22.9-4.217 8.442-14.467 11.858-22.9 7.65-46.667-25.117-84.933-63.383-110.050-110.050-4.217-8.433-0.792-18.692 7.65-22.9 8.433-4.217 18.683-0.792 22.9 7.642zM834.558 728.692c-25.117 46.667-63.383 84.933-110.042 110.050-8.442 4.217-18.692 0.792-22.908-7.65-4.208-8.433-0.792-18.683 7.65-22.9 39.975-21.925 72.85-54.808 94.767-94.792 4.242-8.425 14.517-11.825 22.95-7.583s11.825 14.517 7.583 22.95z" />
<glyph unicode="&#xe913;" glyph-name="tent" d="M1022.807 120.392l-233.921 527.515c-1.193 1.193-1.193 2.387-2.387 2.387l-1.193 1.193c0 0 0 0-1.193 1.193l-266.145 167.086c-1.193 0-1.193 1.193-2.387 1.193s-2.387 1.193-3.58 1.193c-1.193 0-2.387 0-3.58-1.193h-2.387l-266.145-167.086c0 0 0 0-1.193-1.193-1.193 0-1.193-1.193-1.193-1.193 0-1.193-1.193-1.193-1.193-2.387 0 0 0 0-1.193-1.193l-233.921-526.322c-1.193-1.193-1.193-3.58-1.193-4.774v-31.030c0-7.161 4.774-11.935 11.935-11.935s11.935 4.774 11.935 11.935v28.643l180.214 405.781-102.639-432.037v-1.193c0-1.193 0-2.387 0-3.58s0-1.193 0-2.387v-1.193c0-1.193 1.193-1.193 1.193-2.387 1.193-1.193 2.387-2.387 3.58-2.387h1.193c1.193-1.193 3.58-1.193 4.774-1.193h799.627c1.193 0 3.58 0 4.774 1.193h1.193c1.193 1.193 2.387 1.193 3.58 2.387 0 1.193 1.193 1.193 1.193 2.387v1.193c0 1.193 0 1.193 0 2.387s0 2.387 0 3.58v1.193l-102.639 430.844 180.214-405.781v-27.45c0-7.161 4.774-11.935 11.935-11.935s11.935 4.774 11.935 11.935v29.837c0 1.193 0 3.58-1.193 4.774zM500.065 97.716h-336.559c214.825 116.96 300.755 352.075 336.559 519.161v-519.161zM130.089 107.263l126.508 529.902 243.469 151.571c-5.967-97.865-47.739-525.128-369.977-681.473zM523.935 97.716v521.548c34.611-168.28 121.734-403.394 336.559-521.548h-336.559zM893.911 107.263c-319.851 156.345-362.816 580.028-368.783 681.473l243.469-152.765 125.315-528.709z" />
<glyph unicode="&#xe914;" glyph-name="tent-1" d="M387.879 558.396h-28.643v28.643c0 3.58-2.387 5.967-5.967 5.967h-27.45c-3.58 0-5.967-2.387-5.967-5.967v-28.643h-28.643c-3.58 0-5.967-2.387-5.967-5.967v-27.45c0-3.58 3.58-5.967 5.967-5.967h28.643v-28.643c0-3.58 2.387-5.967 5.967-5.967h27.45c3.58 0 5.967 2.387 5.967 5.967v28.643h28.643c3.58 0 5.967 2.387 5.967 5.967v27.45c0 3.58-2.387 5.967-5.967 5.967zM737.566 558.396h-28.643v28.643c0 3.58-2.387 5.967-5.967 5.967h-27.45c-3.58 0-5.967-2.387-5.967-5.967v-28.643h-28.643c-3.58 0-5.967-2.387-5.967-5.967v-27.45c-1.193-3.58 1.193-5.967 4.774-5.967h28.643v-28.643c0-3.58 2.387-5.967 5.967-5.967h27.45c3.58 0 5.967 2.387 5.967 5.967v28.643h29.837c3.58 0 5.967 2.387 5.967 5.967v27.45c0 3.58-2.387 5.967-5.967 5.967zM1022.807 120.392l-231.534 523.935c0 1.193-1.193 1.193-1.193 2.387-1.193 2.387-2.387 5.967-4.774 7.161l-266.145 167.086h-2.387c-1.193 0-2.387 1.193-3.58 1.193s-2.387 0-3.58-1.193h-2.387l-266.145-167.086c-1.193-1.193-2.387-2.387-3.58-4.774-1.193-1.193-2.387-2.387-2.387-3.58l-233.921-523.935c-1.193-1.193-1.193-3.58-1.193-4.774v-31.030c0-7.161 4.774-11.935 11.935-11.935s11.935 4.774 11.935 11.935v28.643l181.408 409.361-103.832-434.424v-1.193c0-1.193 0-2.387 0-3.58s0-1.193 0-2.387v-1.193c0-1.193 1.193-1.193 1.193-2.387 1.193-1.193 2.387-2.387 3.58-2.387h1.193c1.193-1.193 3.58-1.193 4.774-1.193h799.627c1.193 0 3.58 0 4.774 1.193h1.193c1.193 1.193 2.387 1.193 3.58 2.387 0 1.193 1.193 1.193 1.193 2.387v1.193c0 1.193 0 1.193 0 2.387s0 2.387 0 3.58v1.193l-102.639 432.037 180.214-408.168v-27.45c0-7.161 4.774-11.935 11.935-11.935s11.935 4.774 11.935 11.935v29.837c0 1.193 0 3.58-1.193 4.774zM255.403 637.166l243.469 151.571c-4.774-97.865-46.545-525.128-369.977-681.473l126.508 529.902zM500.065 97.716h-336.559c214.825 116.96 300.755 352.075 336.559 519.161v-519.161zM523.935 97.716v521.548c34.611-168.28 121.734-403.394 336.559-521.548h-336.559zM893.911 107.263c-319.851 156.345-364.009 580.028-369.977 681.473l243.469-152.765 126.508-528.709z" />
<glyph unicode="&#xe915;" glyph-name="male-user-shadow" d="M41.043-34.956h941.915c12.58 0 24.311 5.138 32.182 14.085 6.84 7.76 9.867 17.606 8.568 27.72-22.088 172.079-127.898 315.472-272.752 391.925-61.226-61.226-145.748-99.147-238.954-99.147s-177.732 37.921-238.954 99.147c-144.857-76.432-250.688-219.846-272.756-391.925-1.299-10.114 1.748-19.981 8.568-27.72 7.871-8.947 19.602-14.085 32.182-14.085zM299.755 435.979c5.496-5.764 11.236-11.256 17.177-16.571 51.895-46.423 120.139-74.903 195.066-74.903s143.171 28.504 195.066 74.903c5.942 5.315 11.685 10.811 17.177 16.571 5.472 5.764 10.811 11.66 15.833 17.849 40.659 50.349 65.147 114.284 65.147 183.896 0 161.697-131.556 293.228-293.228 293.228s-293.219-131.552-293.219-293.223c0-69.612 24.488-133.551 65.147-183.896 5.001-6.193 10.337-12.069 15.833-17.854z" />
<glyph unicode="&#xe916;" glyph-name="shopping-bag" d="M860.286 652.43c-3.836 35.012-33.292 61.416-68.514 61.416h-53.312v-147.692c0-16.314-13.226-29.538-29.538-29.538s-29.538 13.226-29.538 29.538v147.692h-334.768v-147.692c0-16.314-13.226-29.538-29.538-29.538s-29.538 13.226-29.538 29.538v147.692h-53.312c-35.222 0-64.678-26.404-68.514-61.416l-53.694-489.968h803.964l-53.698 489.968zM930.422 12.43l-9.966 90.954h-816.912l-9.968-90.954c-2.128-19.444 4.138-38.95 17.192-53.514s31.764-22.916 51.324-22.916h699.82c19.56 0 38.266 8.354 51.322 22.918s19.32 34.068 17.188 53.512zM512 960c-124.87 0-226.46-101.59-226.46-226.462v-19.692h59.076v19.692c0 92.296 75.088 167.384 167.384 167.384s167.384-75.088 167.384-167.384v-19.692h59.076v19.692c0.002 124.872-101.588 226.462-226.46 226.462z" />
<glyph unicode="&#xe917;" glyph-name="circle" d="M512 960c-282.326 0-512-229.674-512-512s229.674-512 512-512 512 229.674 512 512-229.674 512-512 512z" />
<glyph unicode="&#xe918;" glyph-name="schedule-button" d="M512 960c-281.6 0-512-230.4-512-512s230.4-512 512-512 512 230.4 512 512-230.4 512-512 512zM512 38.4c-225.28 0-409.6 184.32-409.6 409.6s184.32 409.6 409.6 409.6 409.6-184.32 409.6-409.6-184.32-409.6-409.6-409.6zM537.6 704h-76.8v-307.2l266.24-163.84 40.96 66.56-230.4 138.24z" />
<glyph unicode="&#xe919;" glyph-name="rec-circular-button" d="M511.961-63.985c-282.286 0-511.961 229.675-511.961 511.977 0 282.317 229.675 511.992 511.961 511.992 282.333 0 512.039-229.675 512.039-511.992 0-282.302-229.69-511.977-512.039-511.977zM511.961 898.052c-248.146 0-450.029-201.898-450.029-450.060s201.883-450.045 450.029-450.045c248.193 0 450.107 201.898 450.107 450.045s-201.914 450.060-450.107 450.060zM648.521 439.833c0-75.394-61.119-136.514-136.514-136.514s-136.514 61.119-136.514 136.514c0 75.394 61.119 136.514 136.514 136.514s136.514-61.119 136.514-136.514z" />
<glyph unicode="&#xe91a;" glyph-name="phone-receiver" d="M769.662 951.889c-4.977 6.636-13.269 11.613-23.221 4.977-96.223-66.361-164.249-207.378-127.748-323.51 21.57-68.020 112.811-77.974 89.59-159.266-26.547-87.928-114.475-165.9-172.538-235.579-21.57-26.544-102.859-104.521-122.77-31.521-4.977 16.59-9.954 36.499-21.567 48.112-33.18 33.178-71.338 38.155-116.132 23.224-82.951-26.544-179.175-127.745-185.811-220.65-1.659-1.659-1.659-3.321-1.659-4.977-3.318-127.745 167.561-124.427 255.49-109.498 167.561 29.865 311.899 204.060 408.123 330.146 132.716 175.859 330.143 572.366 18.244 678.544z" />
<glyph unicode="&#xe91b;" glyph-name="add-plus-button" d="M1024 374.857h-438.857v-438.857h-146.286v438.857h-438.857v146.286h438.857v438.857h146.286v-438.857h438.857v-146.286z" />
<glyph unicode="&#xe91c;" glyph-name="minus" d="M64 512h832v-192h-832v192z" />
<glyph unicode="&#xe91d;" glyph-name="reply" d="M780.567-64.002h-646.734c-49.523 0-89.819 40.296-89.819 89.827v646.726c0 49.531 40.296 89.827 89.819 89.827h89.827c9.914 0 17.961-8.047 17.961-17.969 0-9.914-8.047-17.961-17.961-17.961h-89.827c-29.711 0-53.89-24.179-53.89-53.898v-646.726c0-29.718 24.179-53.898 53.89-53.898h646.734c29.711 0 53.89 24.179 53.89 53.898v431.151c0 9.914 8.047 17.969 17.969 17.969 9.914 0 17.961-8.055 17.961-17.969v-431.151c0-49.531-40.296-89.827-89.819-89.827zM223.66 295.29c-1.352 0-2.711 0.148-4.078 0.469-8.117 1.891-13.89 9.148-13.89 17.5 0 457.869 207.224 520.978 431.158 520.978h17.961v107.788c0 6.93 3.992 13.242 10.242 16.219 6.25 3 13.672 2.102 19.039-2.281l287.434-233.536c4.211-3.414 6.648-8.539 6.648-13.945s-2.437-10.523-6.625-13.937l-287.434-233.544c-5.391-4.367-12.797-5.266-19.047-2.281-6.266 2.969-10.258 9.289-10.258 16.226v107.788h-17.961c-217.067 0-312.879-106.139-397.073-277.395-3.055-6.25-9.383-10.047-16.117-10.047zM636.85 798.307c-227.989 0-374.979-70.819-393.284-409.635 82.147 140.397 189.38 229.989 393.284 229.989h35.929c9.914 0 17.961-8.055 17.961-17.969v-88.007l240.981 195.794-240.981 195.802v-88.014c0-9.914-8.047-17.961-17.961-17.961z" />
<glyph unicode="&#xe91e;" glyph-name="shield" d="M512 879.98c-11.076 0-19.98-8.92-19.98-19.98 0-10.294 7.744-18.86 17.98-19.876 11.85-1.176 21.98 8.054 21.98 19.876 0 11.076-8.92 19.98-19.98 19.98zM912 840c-55.14 0-100 44.86-100 100 0 11.044-8.956 20-20 20h-560c-11.044 0-20-8.956-20-20 0-55.14-44.86-100-100-100-11.044 0-20-8.956-20-20v-326.38c0-254.354 165.79-482.27 414.256-556.778 1.874-0.56 3.808-0.842 5.744-0.842s3.874 0.282 5.746 0.844c243.084 72.918 414.254 296.858 414.254 556.776v326.38c0 11.044-8.956 20-20 20zM892 493.62c0-238.896-152.442-445.784-380-516.706-225.744 70.356-380 279.118-380 516.706v307.804c61.222 8.796 109.78 57.354 118.576 118.576h522.848c8.796-61.222 57.354-109.78 118.576-118.576v-307.804zM840.024 775.020c-41.708 18.266-74.738 51.296-93.004 93.004-3.188 7.276-10.376 11.976-18.32 11.976h-136.74c-11.044 0-20-8.956-20-20s8.956-20 20-20h124.094c21.13-41.362 54.584-74.814 95.946-95.946v-250.434c0-195.726-117.498-364.606-300-432.208-182.502 67.604-300 236.482-300 432.208v250.434c41.362 21.132 74.814 54.584 95.946 95.946h124.094c11.044 0 20 8.956 20 20s-8.956 20-20 20h-136.74c-7.944 0-15.132-4.702-18.32-11.976-18.266-41.708-51.296-74.738-93.004-93.004-7.274-3.188-11.976-10.378-11.976-18.32v-263.080c0-214.426 132.622-401.306 333.328-472.332 2.158-0.764 4.414-1.146 6.672-1.146s4.514 0.382 6.672 1.146c200.538 70.966 333.328 257.732 333.328 472.332v263.080c0 7.944-4.702 15.132-11.976 18.32zM512 668c-99.252 0-180-80.748-180-180s80.748-180 180-180c99.252 0 180 80.748 180 180s-80.748 180-180 180zM512 348c-77.196 0-140 62.804-140 140s62.804 140 140 140c77.196 0 140-62.804 140-140s-62.804-140-140-140zM606.142 542.144c-7.812 7.808-20.472 7.808-28.286 0l-85.856-85.858-25.858 25.856c-7.812 7.808-20.472 7.808-28.286 0-7.81-7.81-7.81-20.474 0-28.286l40-40c3.908-3.902 9.024-5.856 14.144-5.856s10.236 1.954 14.142 5.858l100 100c7.81 7.81 7.81 20.474 0 28.286z" />
<glyph unicode="&#xe91f;" glyph-name="clock" d="M511.991 960c-282.762 0-511.991-229.236-511.991-511.991s229.23-512.009 511.991-512.009 512.009 229.254 512.009 512.009-229.247 511.991-512.009 511.991zM733.34 350.628h-217.064c-0.734 0-1.417 0.177-2.144 0.205-0.727-0.034-1.406-0.205-2.144-0.205-19.555 0-35.411 15.855-35.411 35.411v361.481c0 19.555 15.855 35.411 35.411 35.411s35.411-15.855 35.411-35.411v-326.071h185.927c19.555 0 35.411-15.855 35.411-35.411s-15.842-35.411-35.397-35.411z" />
<glyph unicode="&#xe920;" glyph-name="message" d="M1023.218 564.798c-0.002 1.54-0.346 3.866-0.944 5.206-1.574 5.708-5.072 10.922-10.308 14.562l-146.584 101.896v109.232c0 14.48-11.744 26.224-26.224 26.224h-168.638l-143.486 99.756c-8.968 6.242-20.874 6.268-29.87 0.052l-144.412-99.808h-167.9c-14.484 0-26.224-11.744-26.224-26.224v-107.946l-147.296-101.802c-7.246-5.008-11.166-13.014-11.29-21.2-0.008-0.154-0.042-0.3-0.042-0.46l0.782-568.47c0.010-6.954 2.782-13.62 7.704-18.532 4.916-4.902 11.576-7.654 18.52-7.654 0.014 0 0.024 0 0.036 0l970.77 1.334c14.48 0.020 26.208 11.778 26.188 26.26l-0.782 567.574zM865.38 622.584l83.796-58.236-83.796-58.256v116.492zM512.030 868.232l66.62-46.312h-133.624l67.004 46.312zM211.076 769.47h601.856v-299.842l-202.072-140.484-82.388 63.908c-0.128 0.1-0.238 0.162-0.362 0.252-9.208 6.908-22.232 7.162-31.788-0.252l-82.986-64.37-202.26 139.786v301.002zM158.628 623.994v-119.28l-86.292 59.638 86.292 59.642zM52.516 514.266l317.338-219.31-316.698-245.648-0.64 464.958zM103.75 22.182l408.648 316.968 407.182-315.846-815.83-1.122zM654.288 295.458l316.552 220.072 0.64-466.118-317.192 246.046zM689.54 664.574h-355.072c-14.48 0-26.224-11.744-26.224-26.224s11.744-26.224 26.224-26.224h355.072c14.484 0 26.224 11.744 26.224 26.224s-11.74 26.224-26.224 26.224zM689.54 528.21h-355.072c-14.48 0-26.224-11.744-26.224-26.224s11.744-26.224 26.224-26.224h355.072c14.484 0 26.224 11.744 26.224 26.224s-11.74 26.224-26.224 26.224z" />
</font>
</defs>
</svg>
